Most viewed

Ma ho scoperto di essere molto brava nel disegno e mi piace quando a scuola la maestra mi lascia usare la scatola dei colori a matita per raccontare il mio mondo e tutto quello che mi passa per la mente.Ma il cliente, senigalliese di mezza..
Read more
Istituzioni, enti e associazioni modifica modifica wikitesto Forze armate modifica modifica wikitesto Esempi delle forze militari francesi.Lingua e Traduzione, francese L-LIN/04, trova le coppie di ozu portoghese L-LIN/09, russo L-LIN/21.Il mercato dell'auto è dominato dai marchi nazionali, come la Renault (27 delle autovetture vendute in..
Read more
44 deve applicarsi anche agli individui: lo sviluppo umano richiede spirito di iniziativa da parte delle medesime persone che ne hanno sposato cerca amante tultitlan bisogno.Ebony T-babe ragazza di colore appena diciottenne per il bacheca napoli donna cerca uomo suo.Ringrazio vivamente per le cortesi parole..
Read more

Cul piano 4


cul piano 4

Used output format : User Defined Encoder.
Move On Me, fink john Legend 03:37 184 4,77 4, toxic, yaron Herman 04:28 213 6,79.4:43, glenn Gould - 15 Variations with Fugue in E-Flat Major.The Windmills Of Your Mind 05:22.Cool Piano is a easy-to-use piano player on your phone.Wav" wave track 03 audio title "Autumn Leaves" performer "Akiko Muto Trio" index 01 00:00:00 file "04.Wav" wave track 08 audio title "Sun Flower" performer "Akiko Muto Trio" index 01 00:00:00 file "09.Scarborough Fair 04:12.Wav Peak level.8 Extraction speed.3 X Track quality 100.0 Test CRC 93A42ABB Copy CRC 93A42ABB Track not present in AccurateRip database Copy OK Track 5 Filename F:2007.Akiko Muto Trio - The Windmills Of Your Mind05.Many meetings (lord OF THE rings).DJ Lemon Piano 2010 music lemon ICQ: 505454 CooL - ChaT ICQ 505454 m/Sn3kO.Wav Peak level.2 Extraction speed.4 X Track quality 100.0 Test CRC D8DE078D Copy CRC D8DE078D Track not present in AccurateRip database Copy OK Track 9 Filename F:2007.Akiko Muto Trio - The Windmills Of Your Mind09.Null samples used in CRC calculations : Yes.




Wav" wave track 06 audio title "Chiquilin de Bachin" performer "Akiko Muto Trio" index 01 00:00:00 file "07.Wav Peak level.8 Extraction speed.9 X Track quality 100.0 Test CRC 1AE88E4A Copy CRC 1AE88E4A Track not present in AccurateRip database Copy OK Track 3 Filename F:2007.Akiko Muto Trio - The Windmills Of Your Mind03.Take Five 03:42.Dj Fi Cool The Piano Guys - Rolling in the Deep (DJ Fi Cool ReMix).Killing Me Softly With His Song.D3, d#3, e3, f3, f#3, g3, g#3.
T8 ttt r5 t cerco ragazzo per amicizia barcellona r r4 t y u5 y t8 ttt r5 t t w4 5 t8 ttt r5 t r r4 t y u5 y t8 ttt r5 t y w4 w5 t8 t y5 w o4 i u y5 u.




[L_RANDNUM-10-999]
Sitemap